#TITLE:菠菜进行?;
#SUBTITLE:康康舞曲CanCan改编;
#ARTIST:约克·奥芬巴赫;
#TITLETRANSLIT:;
#SUBTITLETRANSLIT:;
#ARTISTTRANSLIT:;
#CREDIT:;
#BANNER:˽(CanCanı)_logo.jpg;
#BACKGROUND:˽(CanCanı)_bg.jpg;
#LYRICSPATH:;
#CDTITLE:Lan.png;
#MUSIC:˽(CanCanı).mp3;
#OFFSET:-0.040;
#SAMPLESTART:100.000;
#SAMPLELENGTH:12.000;
#SELECTABLE:YES;
#BPMS:0.000=170.000,98.000=68.000,99.000=340.000,102.000=170.000,132.000=340.000,132.750=68.000,133.000=340.000,133.750=68.000,134.000=170.000,165.000=68.000,165.250=340.000,166.000=170.000,214.000=68.000,214.500=340.000,216.000=170.000,236.000=68.000,236.250=340.000,237.000=170.000,240.000=68.000,240.250=340.000,241.000=170.000,247.000=68.000,247.250=340.000,248.000=170.000,300.000=340.000,300.750=68.000,301.000=170.000;
#STOPS:;
#BGCHANGES:;
// cache tags:
#FIRSTBEAT:20.000;
#LASTBEAT:324.000;
#SONGFILENAME:Songs/Super Dancer Online/˽/˽.sm;
#HASMUSIC:1;
#HASBANNER:1;
#MUSICLENGTH:118.429;
// end cache tags

//---------------dance-single - sky----------------
#NOTES:
     dance-single:
     sky:
     Hard:
     10:
     1.000,1.000,1.000,0.405,0.232,542.000,303.000,48.000,0.000,123.000:

0000
0000
0000
0000
,
0000
0000
0000
0000
,
0000
0000
0000
0000
,
0000
0000
0000
0000
,
0000
0000
0000
0000
,
0001
0100
0100
0010
0100
1000
1000
0010
,
0100
0010
0001
0010
0010
0100
0100
0000
,
0001
1000
1000
0001
0010
0100
0100
0010
,
0010
0001
0000
0000
0100
0000
0000
0000
0010
0001
0000
0000
0100
0000
0000
0000
0010
0001
0000
0000
0100
0000
0000
0000
0010
0001
0000
0000
0100
0000
0000
0000
,
1101
0010
1001
0100
0011
0100
1010
0001
,
1101
0010
1001
0010
0110
1000
1001
0001
,
1011
0100
0110
0001
0110
1000
1010
0001
,
0101
1010
0101
1010
1010
0101
0101
0000
,
1001
0100
0101
1000
,
0001
0100
0010
0001
0010
0100
1000
0000
,
0101
0010
1010
0001
,
0010
0001
1000
0100
0001
0010
0010
0000
,
1101
0110
1011
0101
,
0011
0100
0010
0001
0010
0101
1001
0000
,
1101
1010
1011
0101
,
0011
1000
0100
0001
1011
0100
1110
0001
,
1011
0100
1110
0001
0111
1000
1110
0001
,
0111
0000
1000
0000
1101
0000
0010
0000
1011
0000
0000
0100
0101
0000
0000
1010
,
0101
0000
0000
0001
0101
0000
0000
0011
1100
0000
0000
0101
0101
0000
0000
1001
,
0110
0110
0110
0110
0110
0000
1001
1001
0000
0000
0000
0000
0000
0000
0000
0000
,
0000
0000
1221
1001
,
1331
0010
0101
1100
2012
0000
0110
0000
,
3113
1001
0110
0011
2201
0000
0011
0000
,
3310
0001
0110
1000
1010
0011
0101
0110
,
1010
1100
0011
0110
1101
0000
1011
0000
,
0110
1001
0110
1010
1101
0000
1101
0000
,
0110
0011
1010
0101
1110
0000
1101
0000
,
1010
0001
1100
0110
1000
0101
1010
0011
,
1101
0000
0000
0000
0110
0000
0000
0000
1000
0001
0100
0010
1000
0001
0010
0100
,
1001
0101
0110
1010
1001
0100
1011
0100
,
1110
0011
1100
0011
1110
0001
1010
0001
,
0110
1001
0101
1100
1010
0001
0101
0100
,
1010
0100
0101
1000
0111
1000
0110
0001
,
1010
0101
0110
1010
0111
1000
0111
0001
,
0110
0011
1100
0010
1101
0010
1101
0001
,
1100
0001
0110
1100
0010
0101
1000
0110
,
1011
0000
0110
0000
0001
0100
0100
0010
,
0100
1000
1000
0010
0100
0010
0001
0010
,
0010
0100
0100
0000
0001
1000
1000
0001
,
0010
0100
0100
0010
0010
1000
0010
1000
,
0010
1000
0010
1000
0101
0110
0110
1100
,
0110
0011
0011
1010
1100
1010
0011
0110
,
0101
1010
1010
0000
0101
1010
1010
1010
,
0100
1001
1001
1001
0010
1100
1100
1100
,
0010
0101
0101
0101
1010
0011
0011
0011
,
1100
1001
1001
1001
0101
0110
0110
0110
,
0011
1100
0011
1100
0111
1110
0111
1110
,
0111
1100
0110
0000
0000
0000
0000
0000
,
0000
0000
1111
0000
,
1222
0000
1000
0000
1300
0130
1013
0001
,
2221
0000
0001
0000
3001
1030
0311
0101
,
2110
0000
0211
0000
0001
0010
0301
0010
,
3121
1000
2101
0001
0132
0010
3100
1010
,
2213
0000
0011
0000
3311
0101
1100
0110
,
1000
0000
0111
0000
0110
0011
1100
0110
,
0001
0000
1100
0000
1101
0011
0110
1100
,
1001
0011
1100
0101
1011
0000
1110
0000
,
1100
0010
0001
0010
1100
0010
0001
0010
1100
0000
0110
0000
0011
0000
0110
0000
,
2112
0000
0120
0000
3103
1000
0231
1001
,
2011
0000
0312
0000
3110
0010
0113
1100
,
0110
1000
1001
0010
0101
0001
0101
1000
,
2021
0000
0201
0000
3032
1000
1310
0010
,
1113
0000
1221
0000
1001
0002
1330
2010
,
0100
0000
0000
0000
0110
0000
0000
0000
3103
0010
0100
1000
0001
0010
0100
1000
,
0111
2100
0210
3021
,
1302
0000
0000
0000
2130
0000
0000
0000
0013
0100
0001
0010
0001
0100
0010
0001
,
3110
0012
0120
1203
,
2031
0000
0000
0000
0312
0000
0000
0000
3010
0100
1000
0010
0100
0010
1000
0010
,
1103
0010
0001
0010
0100
0010
0001
0010
1000
0100
0001
0010
1000
0100
1001
0010
,
1100
0010
0001
0010
1000
0100
0001
0010
1100
0010
0001
0010
1001
0100
1001
0010
,
1101
1001
0020
0101
,
1230
1010
0320
0101
,
1131
0000
0000
0110
0110
0000
0000
1001
0110
0000
0000
0101
0101
0000
0000
0101
,
1010
0001
1110
1000
0111
0001
1110
1001
,
1111
0000
0000
0000
0110
0000
0000
0000
1001
1010
1100
1010
1001
0000
0110
0000
,
2002
0000
0000
0000
0000
0000
0000
3003
,
1111
0000
0000
0000
;
